#TITLE:Bad Boy;
#SUBTITLE:Expi3nze;
#ARTIST:We 100%;
#TITLETRANSLIT:;
#SUBTITLETRANSLIT:;
#ARTISTTRANSLIT:;
#CREDIT:;
#BANNER:bn.png;
#BACKGROUND:bg.png;
#LYRICSPATH:;
#CDTITLE:cdtitle.png;
#MUSIC:Bad Boy1.mp3;
#OFFSET:-0.304;
#SAMPLESTART:100.000;
#SAMPLELENGTH:12.000;
#SELECTABLE:YES;
#BPMS:0.000=135.000,219.000=270.000,219.250=67.500,219.375=135.000,219.500=270.000,219.750=67.500,219.875=135.000,220.000=270.000,220.250=67.500,220.375=135.000,220.500=270.000,220.750=67.500,220.875=135.000,285.000=67.500,285.250=270.000,285.750=67.500,286.000=270.000,286.500=135.000,287.500=67.500,287.750=270.000,288.250=67.500,288.500=270.000,289.000=135.000;
#STOPS:;
#BGCHANGES:;
// cache tags:
#FIRSTBEAT:1.000;
#LASTBEAT:289.000;
#SONGFILENAME:Songs/Expi3nze 4th Collection/Bad Boy (We 100%)/Bad Boy1.sm;
#HASMUSIC:1;
#HASBANNER:1;
#MUSICLENGTH:131.252;
// end cache tags

//---------------dance-single - ----------------
#NOTES:
     dance-single:
     :
     Hard:
     19:
     1.000,1.000,1.000,0.541,1.000,822.000,270.000,71.000,0.000,107.000:
0000
0202
0000
0000
,
0000
0000
0000
0000
,
0000
0000
0300
0000
1003
0100
0010
1000
0100
0000
0010
0010
0100
0001
0100
0001
,
0100
0000
0010
0010
1000
1000
0001
0100
0001
0000
0001
0100
0001
0100
1000
0010
,
0010
0000
1000
0100
1000
0001
1000
1000
1000
0000
0001
0100
0010
0001
0100
0010
,
0001
0000
1000
1000
0010
1000
0010
1000
0010
0000
0100
0010
1000
0100
0001
0010
,
0100
0000
0001
0001
0010
0001
1000
0100
0010
0000
1000
0100
0010
0100
1000
0010
,
0010
0000
0010
0100
0001
0010
1000
0001
0001
0000
0001
1000
0001
1000
1000
0000
,
0010
0000
0010
0100
0010
1000
0001
0010
0100
0000
0001
0010
0001
0010
1000
0100
,
0010
0000
1000
0100
0001
0010
1000
0100
0010
0000
0100
0100
0100
0001
0100
0000
,
0100
0100
0001
0100
0200
0000
0320
0000
,
0031
0010
1000
0010
0020
0000
0032
0000
,
0103
0100
0010
1000
0020
0000
2030
0000
,
3010
0010
1000
0001
0200
0000
0320
0000
,
0130
0010
2000
0000
0000
0020
0000
3000
,
0130
0000
0100
0000
0020
0000
0000
0000
0000
0200
0000
0000
0030
0000
0000
0000
,
0310
0000
0000
0010
0000
0000
0100
0010
0001
0100
0010
0001
0100
1000
0100
0001
1000
0001
1000
0010
0001
0010
0100
0010
,
1000
0100
0010
1000
0100
0010
1000
0100
1000
0001
0100
0001
0100
0001
1000
0100
0010
0001
1000
0100
0010
0001
1000
0100
,
0001
0000
0010
0000
0100
0000
0010
0000
0000
0000
0000
0000
0111
0000
0000
0000
0000
0000
1000
0000
0000
1010
0000
0000
0111
0000
0000
1000
0000
0000
0101
0000
0000
0010
0000
0000
0100
0000
0000
1000
0000
0000
0011
0000
0000
1000
0000
0000
,
0111
1001
0100
0010
1001
0100
0010
1001
1011
1000
0010
0101
0010
1000
0100
1001
,
1101
0010
0101
0010
0001
1100
0001
0010
1101
0010
0100
1001
0001
0100
1010
0100
,
1011
1001
0010
0100
1001
0010
0100
1001
1110
0001
1100
0010
1000
0100
1010
0001
,
1110
1001
0010
0001
1100
0001
0010
1100
1101
0010
1001
0100
0010
0001
1100
0010
,
1101
1001
0010
0100
1001
0010
0100
1001
1101
0001
1010
0100
1000
0001
0010
0101
,
1010
0100
1000
0010
0101
0010
1000
1010
1110
0001
1010
0100
1000
0010
0101
0010
,
1101
1001
0100
0010
1001
0100
1001
0100
0011
0100
1001
0010
1001
0011
0101
1010
,
1001
0010
0010
0000
2012
0000
0000
0000
0210
0000
0000
0000
0010
0000
0000
0000
,
0010
0000
0000
0000
0023
0000
0000
0000
0331
0000
0001
0010
0101
0010
0100
0000
,
0111
0000
0001
0000
3101
0000
0001
0010
1101
0010
0100
1000
0101
0000
0101
0000
,
1101
0002
0100
0103
0111
0000
0200
0020
,
2331
0020
3232
0000
1020
0000
1000
0000
,
1030
0000
2310
0000
3010
1000
1010
0100
,
1110
0000
1000
0100
0013
1000
0100
0000
1110
0000
1000
0000
0011
0000
1001
0000
,
1010
1000
0011
1001
1011
0101
1010
0101
,
0111
0101
0201
0000
0021
0000
2302
0000
,
3130
0000
0000
0000
0103
0010
1000
0100
0011
0000
1000
0000
1010
0100
1000
0001
,
1100
0001
0101
0100
0102
0000
0200
0000
,
1000
0000
1313
0000
1011
0000
1010
1010
,
1011
0000
1001
0000
1001
0010
0100
1000
0011
1000
0100
0001
1010
0100
1000
0010
,
0101
0010
1000
0100
1010
0001
0100
0010
1100
0010
0001
0100
1010
0100
1000
0010
,
1100
0001
0010
0100
1001
0010
0001
0100
0011
1000
0100
0010
1001
0100
0010
0100
,
1001
0010
0100
1000
0101
1010
0101
1010
0101
0000
0101
0000
0101
0000
0101
0000
,
0101
1001
0100
0100
0021
0000
0000
0000
0000
0000
0000
0000
0000
0000
0000
0000
,
0030
0000
0000
0000
0101
0000
0001
0101
1011
0100
0011
0100
1000
0001
1010
0100
,
1011
0101
1000
0001
1100
0001
0100
0110
0111
0100
0001
1010
0001
1000
0100
1010
,
1110
0001
1010
0100
1000
0011
1000
0001
1110
0001
1000
1010
0010
0100
0101
0001
,
0111
0110
0001
1000
0110
1000
0010
0110
1101
0010
1100
0100
0001
0010
0101
0010
,
1101
1100
0001
0010
1100
0010
0001
1100
1101
0010
0101
1000
0001
0010
1100
0001
,
1110
1001
0100
1000
0011
0001
1000
1100
1101
0010
0101
1000
0001
0010
0101
1010
,
0101
1000
0010
0100
1001
0001
0010
0101
1101
0010
1100
0010
0010
0001
1010
0001
,
1110
1100
1000
0001
0011
1000
0011
1000
0011
1000
1010
0001
0101
0101
1010
0101
,
0101
0010
0010
0000
2010
0000
0000
0000
0010
0000
0000
0000
0010
0000
0000
0000
,
0010
0000
0000
0000
0001
0010
0100
0001
3010
0001
1000
0100
0010
0001
0100
1000
,
0100
1000
0100
0001
0010
0100
0010
1000
0100
0001
0010
0100
1000
0001
0010
0100
,
0001
0010
0001
1000
0100
0010
0001
1000
0100
0010
0001
0000
0200
0000
0020
0000
,
2331
0020
3232
0000
1020
0000
1000
0000
,
1030
0000
1310
0000
0010
1000
1010
0010
,
1110
0000
1000
0100
0013
1000
0100
0000
1110
0000
1000
0000
0011
0000
1001
0000
,
1010
1000
0011
1001
1011
1010
1010
0101
,
0111
0101
0201
0000
0021
0000
2302
0000
,
3130
0000
0000
0000
0103
0010
1000
0100
0011
0000
1000
0000
1010
0100
1000
0001
,
1100
0001
0101
0100
0102
0000
0200
0000
,
1000
0000
1313
0000
1011
0000
1010
1010
,
1011
0000
1001
0000
1001
0010
0100
1000
0011
1000
0100
0001
1010
0100
1000
0010
,
0101
0010
1000
0100
1010
0001
0100
0010
1100
0010
0001
0100
1010
0100
1000
0010
,
1100
0001
0010
0100
1001
0010
0001
0100
0011
1000
0100
0010
1001
0100
0010
0100
,
1001
0010
0100
1000
0011
0000
0001
0100
0011
1000
0100
0010
0001
0000
0101
0000
,
0101
1001
0100
0100
2001
0010
3102
1010
1113
1000
2010
0101
3012
1000
1103
0010
,
1102
1010
0213
1000
2301
0001
3020
0101
1131
0010
2001
0101
3120
0001
0131
1000
,
0121
0101
1032
0100
2013
0100
3020
0101
1131
0001
0020
0001
2031
0100
3110
0010
,
1102
0100
2003
0100
3120
0100
1032
1100
1113
0010
2100
0010
3201
1000
1310
0100
,
1021
0001
0031
0001
1100
0000
0000
1100
0000
0000
1100
0000
0000
0000
0101
0000
,
0000
0101
0000
0000
0101
0000
0000
0000
0000
0000
0000
0000
0000
0000
0000
0000
,
0000
0000
0000
0000
,
0000
0000
0000
0000
,
0000
0000
0000
0000
,
0000
0000
0000
0000
,
0000
0000
0000
0000
;
